(Pop) [WEB] Алла Пугачёва - P.S (Альбом) - 2024, FLAC (tracks), lossless

Ответить на тему
Статистика раздачи
Размер:  640 MB   |    Зарегистрирован:  19 дня   |    Скачано:  0 раза
Список скачавших: Нет
Сидов:  3  [  0 KB/s  ]   Подробная статистика пиров
   
 
Автор Сообщение

MAGNAT ®

Пол: Мужской

Зарегистрированный: 5 года 2 месяца

Сообщений: 20033

Откуда: Москва

Создавать темы 01-Июн-2024 15:37 | #1 · Автор

[Цитировать]

Алла Пугачёва / P.S (Альбом)
Жанр: Pop
Носитель: WEB https://www.qobuz.com/ie-en/album/ps-/vs0m76z19vqwb
Год издания: 2024
Издатель (лейбл): Алла Пугачёва
Аудиокодек: FLAC (*.flac)
Тип рипа: tracks
Продолжительность: 01:31:53
Источник: Qobuz
Наличие сканов в содержимом раздачи: нет
Треклист:

01 Монолог 00:04:12
02 Анестезия 00:03:45
03 Поживи в моей шкуре 00:03:29
04 Всё хорошо - ничего не случилось 00:03:44
05 На коне 00:03:08
06 Жизнь напоказ 00:04:26
07 Святая ложь 00:05:19
08 Вольная 00:04:58
09 Тянет сердце руки 00:03:57
10 Кругом голова 00:05:13
11 Звезда 00:05:12
12 Серое пальто 00:05:31
13 Не делайте мне больно, господа 00:04:18
14 Что-то надо мне 00:04:17
15 Соловушка 00:05:03
16 Свеча горела 00:04:51
17 Мой друг 00:03:50
18 Любовь, похожая на сон 00:05:39
19 Женщина, которая поёт 00:05:58
20 На землю выпала роса 00:04:54

Лог проверки качества

-----------------------
DON'T MODIFY THIS FILE
-----------------------
PERFORMER: auCDtect Task Manager, ver. 1.6.0 RC1 build 1.6.0.1
Copyright (c) 2008-2010 y-soft. All rights reserved
http://y-soft.org
ANALYZER: auCDtect: CD records authenticity detector, version 0.8.2
Copyright (c) 2004 Oleg Berngardt. All rights reserved.
Copyright (c) 2004 Alexander Djourik. All rights reserved.
FILE: 05 - На коне.flac
Size: 24449114 Hash: 3EC17221526CEB20148A2342B8CD64C3 Accuracy: -m40
Conclusion: CDDA 100%
Signature: 82C74EA7DC83D0AD56BAF1CC09565E2365DCC0C7
FILE: 06 - Жизнь напоказ.flac
Size: 33368857 Hash: 6F5CC91D4E4C4775B3004C5DA0016E12 Accuracy: -m40
Conclusion: CDDA 100%
Signature: 8170235400C4F575BF7E9B7976EC25BFC63623CF
FILE: 07 - Святая ложь.flac
Size: 38456958 Hash: 5296751A62B503626E6D82B100E8D4AD Accuracy: -m40
Conclusion: CDDA 100%
Signature: DA68C7B0D87C15333F168AB2053D18FD97DEC8C9
FILE: 08 - Вольная.flac
Size: 36626397 Hash: 029C7B40A96711A053B2F6FF4D225BC3 Accuracy: -m40
Conclusion: CDDA 100%
Signature: C30F98AE0133FB487577F621A9B8B1EABB20D201
FILE: 09 - Тянет сердце руки.flac
Size: 30747315 Hash: 4FAF9E5C757874641C888F0F7ADF02DC Accuracy: -m40
Conclusion: CDDA 100%
Signature: 94B688D11AA20B37E5A121D8EA74301768DB2302
FILE: 10 - Кругом голова.flac
Size: 37525209 Hash: DF383B7AC88E40F8156198BC2EF4CCA0 Accuracy: -m40
Conclusion: CDDA 100%
Signature: C8E213E8D9923F347B15996853CDFE3CCD80081E
FILE: 11 - Звезда.flac
Size: 40388168 Hash: C8CACFFF6776C38FB04782C07E093F6D Accuracy: -m40
Conclusion: CDDA 100%
Signature: 6BF03D99BE9DFF03F9CCB081F1872E4668F3E0E6
FILE: 12 - Серое пальто.flac
Size: 39261073 Hash: E405E9553B0C02A62F8CB6B5A0F17913 Accuracy: -m40
Conclusion: CDDA 100%
Signature: ACDC86ADC53F8D442FB93DD3D3C2747769129C82
FILE: 13 - Не делайте мне больно, господа.flac
Size: 32998841 Hash: 7FC9785B1950A37B9C563A6236D66023 Accuracy: -m40
Conclusion: CDDA 100%
Signature: AECF9307FAEC16BACEB27F8634AB0744085041BB
FILE: 14 - Что-то надо мне.flac
Size: 33887315 Hash: AC617A01D522EE526C707B4832B26464 Accuracy: -m40
Conclusion: CDDA 100%
Signature: C58F0276527E88D9988B6EFC19CD6A35D5EAD81C
FILE: 15 - Соловушка.flac
Size: 38883860 Hash: 0D8B3B79A37BB3F195F976F4F0CAD99C Accuracy: -m40
Conclusion: CDDA 100%
Signature: B65500A729EC2144BE19587E491E24A6EEFC4CCB
FILE: 16 - Свеча горела.flac
Size: 34208504 Hash: 720D51B4F64256A652F7B7FDB5032AD7 Accuracy: -m40
Conclusion: CDDA 100%
Signature: C9112A7DC3CB3A6F51610EFE9A3A963A7C0E8C11
FILE: 17 - Мой друг.flac
Size: 21697118 Hash: 2E9BBE1940F65E73668C4229CA89997E Accuracy: -m40
Conclusion: CDDA 100%
Signature: 59342E3E74789021BF946057D15581EC8CCA9432
FILE: 18 - Любовь, похожая на сон.flac
Size: 41965389 Hash: 6A7BF3720448A247D499BE4A3D40ABD1 Accuracy: -m40
Conclusion: CDDA 100%
Signature: 2A167C9C6B822CA5C11971AD3E5719B37AED3179
FILE: 19 - Женщина, которая поёт.flac
Size: 39424260 Hash: 3BD2AA18BACBEB424D6E6013E33EECA3 Accuracy: -m40
Conclusion: CDDA 100%
Signature: 00C64A0BBA38C030E5E7AE84B70DBC6E912C4689
FILE: 20 - На землю выпала роса.flac
Size: 37594385 Hash: 169C86CC09C65DBBBF5C185A480D673E Accuracy: -m40
Conclusion: CDDA 100%
Signature: 0106FA1E7483968D0CAF9DAA5619575ECB89F68D
FILE: 01 - Монолог.flac
Size: 27873830 Hash: B6A4E51AA1FF5734DF17676CCE4692BD Accuracy: -m40
Conclusion: CDDA 100%
Signature: 00DC98922B25368B0840A9C98E8807F2BEDC5E05
FILE: 02 - Анестезия.flac
Size: 27046163 Hash: BA19543ACF7F1242E19678A5CF32C232 Accuracy: -m40
Conclusion: CDDA 100%
Signature: 16E72E58C71AD07F79FEA6F7B47215483137B378
FILE: 03 - Поживи в моей шкуре.flac
Size: 25551655 Hash: F2B1C4B507757647DAEE81A338594FA0 Accuracy: -m40
Conclusion: CDDA 100%
Signature: 151439C575EE2868ED2C5DDF16F3EFA0318EE359
FILE: 04 - Всё хорошо - ничего не случилось.flac
Size: 28867102 Hash: CF422A9887918272A5B31449A167F8EC Accuracy: -m40
Conclusion: CDDA 99%
Signature: 8DF143C853DE0AD722359534747FB02E40F34EEB

Динамический отчет (DR)

foobar2000 1.5 / Замер динамического диапазона (DR) 1.1.1
Дата отчёта: 2024-03-08 11:31:56
--------------------------------------------------------------------------------
Анализ: Алла Пугачёва / P.S.
--------------------------------------------------------------------------------
DR Пики RMS Продолжительность трека
--------------------------------------------------------------------------------
DR7 -0.47 дБ -11.01 дБ 4:12 ?-Монолог
DR6 -0.43 дБ -9.22 дБ 3:45 ?-Анестезия
DR7 -0.35 дБ -9.43 дБ 3:30 ?-Поживи в моей шкуре
DR7 -0.40 дБ -9.20 дБ 3:44 ?-Всё хорошо - ничего не случилось
DR8 -0.39 дБ -9.64 дБ 3:09 ?-На коне
DR7 -0.45 дБ -9.22 дБ 4:27 ?-Жизнь напоказ
DR6 -0.38 дБ -9.15 дБ 5:20 ?-Святая ложь
DR7 -0.44 дБ -9.54 дБ 4:59 ?-Вольная
DR6 -0.46 дБ -7.60 дБ 3:57 ?-Тянет сердце руки
DR8 -0.30 дБ -9.77 дБ 5:14 ?-Кругом голова
DR6 -0.33 дБ -8.28 дБ 5:13 ?-Звезда
DR8 -0.45 дБ -10.90 дБ 5:32 ?-Серое пальто
DR8 -0.40 дБ -9.57 дБ 4:18 ?-Не делайте мне больно, господа
DR8 -0.43 дБ -9.22 дБ 4:17 ?-Что-то надо мне
DR7 -0.38 дБ -8.47 дБ 5:03 ?-Соловушка
DR6 -0.47 дБ -7.73 дБ 4:52 ?-Свеча горела
DR7 -0.54 дБ -12.68 дБ 3:50 ?-Мой друг
DR6 -0.41 дБ -9.23 дБ 5:40 ?-Любовь, похожая на сон
DR7 -0.42 дБ -10.79 дБ 5:59 ?-Женщина, которая поёт
DR6 -0.38 дБ -7.92 дБ 4:54 ?-На землю выпала роса
--------------------------------------------------------------------------------
Количество треков: 20
Реальные значения DR: DR7
Частота: 44100 Гц
Каналов: 2
Разрядность: 16
Битрейт: 1021 кбит/с
Кодек: FLAC
================================================================================
(Pop) [WEB] Алла Пугачёва - P.S (Альбом) - 2024, FLAC (tracks), lossless [powertracker.ru-48046].torrent 
Торрент: Зарегистрирован [ 2024-06-01 15:37 ]

info_hash: 34AA463D0391A8A0ED4BDED44EB4D9F6F173765F

Скачать .torrent

Скачать

14 KB

Статус: проверено · MAGNAT · 19 дня назад
Скачано: 0 раза
Размер: 640 MB
[Профиль] [ЛС]
Показать сообщения:    
Ответить на тему

Текущее время: 21-Июн 05:29

Часовой пояс: UTC ± 0



Вы не можете начинать темы
Вы не можете отвечать на сообщения
Вы не можете редактировать свои сообщения
Вы не можете удалять свои сообщения
Вы не можете голосовать в опросах
Вы не можете прикреплять файлы к сообщениям
Вы можете скачивать файлы

[  Время выполнения: 0.0398 сек  |  MySQL: 0.0101 сек (25%) · 8 запр.  |  сжатие Gzip: выкл  |  Память: 429.93 KB / 2.36 MB / 1.46 MB  ] |  |  |