Отчаянные домохозяйки / Desperate Housewives / Сезон: 8 / Серии: 1-23 из 23 (Дэвид Гроссман, Ларри Шоу, Дэвид Уоррен) [2011, Драма, мелодрама, комедия, детектив, WEB-DL 1080p] Dub (Невафильм) + Original + Sub (Rus/Eng)

Ответить на тему
Статистика раздачи
Размер:  35.13 GB   |    Зарегистрирован:  2 месяца 19 дня   |    Скачано:  6 раза
Список скачавших: Нет

Полного источника не было: 4 дня -> Kon912

     
 
Автор Сообщение

Kon912 ®

Пол: Не указан

Зарегистрированный: 4 месяца 13 дня

Сообщений: 2713

Создавать темы 31-Мар-2024 18:42 | #1 · Автор

[Цитировать]

Название: Отчаянные домохозяйки
Оригинальное название: Desperate Housewives
Год выхода: 2011
Производство: США / ABC Studios, Cherry Alley Productions
Жанр: Драма, мелодрама, комедия, детектив
Перевод: Профессиональный дублированный
Продолжительность: 23х ~00:45:00 серия

Режиссёры: Дэвид Гроссман, Ларри Шоу, Дэвид Уоррен
В ролях: Тери Хэтчер, Фелисити Хаффмен, Марсия Кросс, Николлетт Шеридан, Ева Лонгория, Стивен Калп, Марк Мозес, Бренда Стронг, Джеймс Дентон, Андреа Боуэн, Джесси Меткалф, Кевин Рахм, Так Уоткинс, Кэтрин Джустен
Описание: Сериал открывает нам тайны и секреты обычных американских женщин, а этих самых тайн и секретов, уж поверьте, немало!. Сериал начинается с того, как добропорядочная американская домохозяйка Мэри Элис Янг оставляет свою жизнь в прекрасном доме с любимой семьёй и совершает самоубийство. Теперь она становится рассказчиком длинной истории под названием "Desperate Housewives". Главными же героинями сериала становятся подруги и соседки Мэри Элис: Сьюзан Мэйер - состоящая в разводе, одинокая мать; Линетт Скаво - оставившая карьеру ради семьи, состоящей из мужа, вечно разъезжающего по командировкам и четырёх детей; Бри Ван Де Камп - "безупречная" до мозга костей домохозяйка, словно сошедшая с экрана телевизора 50-х годов США; Габриэль Солис - бывшая модель, у которой есть всё, чего она хочет - богатый муж, большой дом и любовник-садовник и серийная разведёнка Эдит Бритт, стерва, оставшаяся без дома.

Формат: MKV
Качество: WEB-DL 1080p | OKKO
Видео: MPEG-4/AVC, 1920x1080, ~ 4900 kb/s, 0.095 бит/(Пиксели*Кадры), 25.000 fps
Аудио 1: E-AC3, 2 ch, 198 Kbps - Русский дублированный (Невафильм)
Аудио 2: E-AC3, 2 ch, 198 Kbps Английский
Субтитры: Русские (Full)

Mediainfo

Complete name : Desperate.Housewives.S08E01.WEB-DL.OKKO.1080p-SOFCJ.mkv
Format : Matroska
Format version : Version 4
File size : 1.53 GiB
Duration : 41 min 15 s
Overall bit rate : 5 314 kb/s
Frame rate : 25.000 FPS
Movie name : Desperate.Housewives.S08E01.WEB-DL.OKKO.1080p-SOFCJ
Encoded date : 2024-03-30 08:35:45 UTC
Writing application : mkvmerge v43.0.0 ('The Quartermaster') 64-bit
Writing library : libebml v1.3.10 + libmatroska v1.5.2
Cover : Yes
Attachments : cover.jpg
Video
ID : 1
Format : AVC
Format/Info : Advanced Video Codec
Format profile : High@L4
Format settings : CABAC / 1 Ref Frames
Format settings, CABAC : Yes
Format settings, Reference : 1 frame
Codec ID : V_MPEG4/ISO/AVC
Duration : 41 min 15 s
Bit rate : 4 915 kb/s
Width : 1 920 pixels
Height : 1 080 pixels
Display aspect ratio : 16:9
Frame rate mode : Constant
Frame rate : 25.000 FPS
Color space : YUV
Chroma subsampling : 4:2:0
Bit depth : 8 bits
Scan type : Progressive
Bits/(Pixel*Frame) : 0.095
Stream size : 1.42 GiB (92%)
Language : English
Default : Yes
Forced : No
Audio #1
ID : 2
Format : E-AC-3
Format/Info : Enhanced AC-3
Commercial name : Dolby Digital Plus
Codec ID : A_EAC3
Duration : 41 min 15 s
Bit rate mode : Constant
Bit rate : 198 kb/s
Channel(s) : 6 channels
Channel layout : L R C LFE Ls Rs
Sampling rate : 48.0 kHz
Frame rate : 31.250 FPS (1536 SPF)
Compression mode : Lossy
Stream size : 58.4 MiB (4%)
Title : Dub [Невафильм]
Language : Russian
Service kind : Complete Main
Default : Yes
Forced : No
Audio #2
ID : 3
Format : E-AC-3
Format/Info : Enhanced AC-3
Commercial name : Dolby Digital Plus
Codec ID : A_EAC3
Duration : 41 min 15 s
Bit rate mode : Constant
Bit rate : 198 kb/s
Channel(s) : 6 channels
Channel layout : L R C LFE Ls Rs
Sampling rate : 48.0 kHz
Frame rate : 31.250 FPS (1536 SPF)
Compression mode : Lossy
Stream size : 58.4 MiB (4%)
Language : English
Service kind : Complete Main
Default : No
Forced : No
Text
ID : 4
Format : UTF-8
Codec ID : S_TEXT/UTF8
Codec ID/Info : UTF-8 Plain Text
Duration : 40 min 35 s
Bit rate : 119 b/s
Frame rate : 0.265 FPS
Count of elements : 645
Stream size : 35.5 KiB (0%)
Title : Full
Language : Russian
Default : No
Forced : No

Скриншоты


Отчаянные домохозяйки / Desperate Housewives / Сезон: 8 / Серии: 1-23 из 23 (Дэвид Гроссман, Ларри Шоу, Дэвид Уоррен) [2011, Драма, мелодрама, комедия, детектив, WEB-DL 1080p] Dub (Невафильм) + Original + Sub (Rus/Eng) [powertracker.ru-47086].torrent 
Золото  ЗОЛОТАЯ РАЗДАЧА! СКАЧАННОЕ НЕ ЗАСЧИТЫВАЕТСЯ! Золото 
Торрент: Зарегистрирован [ 2024-03-31 18:42 ]

info_hash: 7139130F87AFD662112414CB5A7B617557F89A1F

Скачать .torrent

Скачать

354 KB

Статус: проверено · Kon912 · 2 месяца 19 дня назад
Скачано: 6 раза
Размер: 35.13 GB
[Профиль] [ЛС]
Показать сообщения:    
Ответить на тему

Текущее время: 20-Июн 00:44

Часовой пояс: UTC ± 0



Вы не можете начинать темы
Вы не можете отвечать на сообщения
Вы не можете редактировать свои сообщения
Вы не можете удалять свои сообщения
Вы не можете голосовать в опросах
Вы не можете прикреплять файлы к сообщениям
Вы можете скачивать файлы

[  Время выполнения: 0.0502 сек  |  MySQL: 0.0142 сек (28%) · 9 запр.  |  сжатие Gzip: выкл  |  Память: 429.93 KB / 2.37 MB / 1.46 MB  ] |  |  |