Ванильное небо / Vanilla Sky (Кэмерон Кроу / Cameron Crowe) [2001, США, Испания, фантастика, фэнтези, триллер, мелодрама, детектив, BDRip-AVC] Dub + Original (Eng) + Sub (Rus, Eng)

Ответить на тему
Статистика раздачи
   
 
Автор Сообщение

MAGNAT ®

Пол: Мужской

Зарегистрированный: 5 года 3 месяца

Сообщений: 20055

Откуда: Москва

Создавать темы 04-Апр-2021 10:38 | #1 · Автор

[Цитировать]

Ванильное небо / Vanilla Sky- Страна: США, Испания
Жанр: фантастика, фэнтези, триллер, мелодрама, детектив
Год выпуска: 2001
Продолжительность: 02:16:02
Перевод: Профессиональный (дублированный)
Субтитры: русские, английские
Оригинальная аудиодорожка: английская
Режиссер: Кэмерон Кроу / Cameron Crowe
В ролях: Том Круз, Пенелопа Крус, Кэмерон Диаз, Курт Рассел, Джейсон Ли, Ноа Тейлор, Тимоти Сполл, Тильда Суинтон, Майкл Шеннон, Дилэйна Митчелл и др.
Описание: У Дэвида было всё: деньги, свой собственный издательский дом, дорогая машина и квартира в респектабельном районе Нью-Йорка, друг-писатель и подружка Джулианна, даже враги, в лице семи управляющих его компанией, тоже были. Так он и жил без оглядки, пока в один прекрасный момент не попал в автокатастрофу и очнулся после комы инвалидом с изуродованным лицом, которое приходится прикрывать «эстетическим протезом». Его новая жизнь обернулась кошмарным сном, от которого нельзя проснуться…
Качество видео: BDRip-AVC
Исходное видео:Blu-ray Disc
Формат видео: MKV
Видео: AVC, 1024x576 (16:9), 23.976 fps, 2 099 kbps, 0.148 bits/pixel
Аудио 1: AAC LC, 48.0 kHz, ~96.00 kbps, 2/0 (L,R) ch, дубляж
Аудио 2: AAC LC, 48.0 kHz, ~96.00 kbps, 2/0 (L,R) ch, оригинал
Формат субтитров: softsub (SRT)

MediaInfo

x264 log

raw [info]: 1024x576p 1:1 @ 24000/1001 fps (cfr)
raw [info]: color matrix: bt709
x264 [info]: using SAR=1/1
x264 [info]: using cpu capabilities: MMX2 SSE2Fast LZCNT
x264 [info]: profile High, level 4.1, 4:2:0, 8-bit
x264 [info]: frame I:1374 Avg QP:18.27 size: 48899
x264 [info]: frame P:36782 Avg QP:19.90 size: 25241
x264 [info]: frame B:157524 Avg QP:22.25 size: 7276
x264 [info]: consecutive B-frames: 1.5% 1.6% 3.3% 14.6% 12.8% 41.4% 7.2% 11.0% 1.8% 1.3% 0.6% 2.0% 0.3% 0.1% 0.1% 0.2% 0.4%
x264 [info]: mb I I16..4: 6.4% 84.3% 9.3%
x264 [info]: mb P I16..4: 1.0% 10.7% 0.8% P16..4: 45.3% 23.7% 16.2% 0.2% 0.1% skip: 2.1%
x264 [info]: mb B I16..4: 0.0% 0.3% 0.0% B16..8: 45.9% 10.0% 2.4% direct: 4.3% skip:37.0% L0:44.6% L1:49.2% BI: 6.2%
x264 [info]: 8x8 transform intra:85.1% inter:68.8%
x264 [info]: coded y,uvDC,uvAC intra: 89.0% 70.8% 34.7% inter: 26.0% 15.3% 3.0%
x264 [info]: i16 v,h,dc,p: 30% 15% 12% 43%
x264 [info]: i8 v,h,dc,ddl,ddr,vr,hd,vl,hu: 9% 7% 6% 11% 15% 15% 13% 12% 11%
x264 [info]: i4 v,h,dc,ddl,ddr,vr,hd,vl,hu: 11% 7% 3% 10% 16% 16% 14% 12% 11%
x264 [info]: i8c dc,h,v,p: 35% 27% 20% 18%
x264 [info]: Weighted P-Frames: Y:4.1% UV:1.9%
x264 [info]: ref P L0: 40.4% 9.6% 18.2% 6.7% 6.1% 4.1% 4.0% 1.9% 2.0% 1.5% 1.6% 1.2% 1.3% 1.1% 0.1% 0.0%
x264 [info]: ref B L0: 69.0% 12.2% 6.2% 3.2% 2.3% 1.9% 1.5% 0.9% 0.8% 0.7% 0.6% 0.4% 0.2%
x264 [info]: ref B L1: 93.2% 6.8%
x264 [info]: kb/s:2099.43
encoded 195680 frames, 5.325 fps, 2099.43 kb/s, 2042.6 MB
General
Unique ID : 57044728119179107542559173773163976894 (0x2AEA6A3DCB7F7F18A9EC908B62BF58BE)
Complete name : D:\uTorrent\Upload\Vanilla.Sky.2001.BDRip-AVC_rutracker.mkv
Format : Matroska
Format version : Version 4
File size : 2.18 GiB
Duration : 2 h 16 min
Overall bit rate : 2 292 kb/s
Encoded date : UTC 2020-11-11 04:48:25
Writing application : mkvmerge v51.0.0 ('I Wish') 64-bit
Writing library : libebml v1.4.0 + libmatroska v1.6.2
Video
ID : 1
Format : AVC
Format/Info : Advanced Video Codec
Format profile : High@L4.1
Format settings : CABAC / 14 Ref Frames
Format settings, CABAC : Yes
Format settings, Reference frames : 14 frames
Codec ID : V_MPEG4/ISO/AVC
Duration : 2 h 16 min
Bit rate : 2 099 kb/s
Width : 1 024 pixels
Height : 576 pixels
Display aspect ratio : 16:9
Frame rate mode : Constant
Frame rate : 23.976 (24000/1001) FPS
Color space : YUV
Chroma subsampling : 4:2:0
Bit depth : 8 bits
Scan type : Progressive
Bits/(Pixel*Frame) : 0.148
Stream size : 1.99 GiB (92%)
Writing library : x264 core 161 r3018+53 18a1d6c t_mod_New [(8 & 10)-bit@all X86_64]
Encoding settings : cabac=1 / ref=14 / deblock=1:-3:-3 / analyse=0x3:0x133 / me=umh / subme=10 / psy=1 / fade_compensate=0.00 / psy_rd=1.00:0.10 / mixed_ref=1 / me_range=32 / chroma_me=1 / trellis=2 / 8x8dct=1 / cqm=0 / deadzone=21,11 / fast_pskip=0 / chroma_qp_offset=-2 / threads=6 / lookahead_threads=1 / sliced_threads=0 / nr=0 / decimate=0 / interlaced=0 / bluray_compat=0 / constrained_intra=0 / fgo=0 / bframes=16 / b_pyramid=2 / b_adapt=2 / b_bias=0 / direct=1 / weightb=1 / open_gop=0 / weightp=2 / keyint=240 / keyint_min=23 / scenecut=40 / intra_refresh=0 / rc_lookahead=60 / rc=crf / mbtree=0 / crf=19.7000 / qcomp=0.58 / qpmin=0:0:0 / qpmax=69:69:69 / qpstep=4 / vbv_maxrate=50000 / vbv_bufsize=62500 / crf_max=0.0 / nal_hrd=none / filler=0 / ip_ratio=1.33 / pb_ratio=1.28 / aq=3:0.70 / aq-sensitivity=10.00 / aq-factor=1.00:1.00:1.00 / aq2=0 / aq3=0
Default : Yes
Forced : No
Color range : Limited
Matrix coefficients : BT.709
Audio #1
ID : 2
Format : AAC LC
Format/Info : Advanced Audio Codec Low Complexity
Codec ID : A_AAC-2
Duration : 2 h 16 min
Bit rate : 96.0 kb/s
Channel(s) : 2 channels
Channel layout : L R
Sampling rate : 48.0 kHz
Frame rate : 46.875 FPS (1024 SPF)
Compression mode : Lossy
Stream size : 91.8 MiB (4%)
Language : Russian
Default : Yes
Forced : No
Audio #2
ID : 3
Format : AAC LC
Format/Info : Advanced Audio Codec Low Complexity
Codec ID : A_AAC-2
Duration : 2 h 16 min
Bit rate : 96.0 kb/s
Channel(s) : 2 channels
Channel layout : L R
Sampling rate : 48.0 kHz
Frame rate : 46.875 FPS (1024 SPF)
Compression mode : Lossy
Stream size : 92.4 MiB (4%)
Language : English
Default : No
Forced : No
Text #1
ID : 4
Format : UTF-8
Codec ID : S_TEXT/UTF8
Codec ID/Info : UTF-8 Plain Text
Duration : 2 h 8 min
Bit rate : 89 b/s
Count of elements : 1322
Stream size : 84.0 KiB (0%)
Title : full
Language : Russian
Default : No
Forced : No
Text #2
ID : 5
Format : UTF-8
Codec ID : S_TEXT/UTF8
Codec ID/Info : UTF-8 Plain Text
Duration : 2 h 8 min
Bit rate : 55 b/s
Count of elements : 1402
Stream size : 52.1 KiB (0%)
Title : full
Language : English
Default : No
Forced : No
Text #3
ID : 6
Format : UTF-8
Codec ID : S_TEXT/UTF8
Codec ID/Info : UTF-8 Plain Text
Duration : 2 h 15 min
Bit rate : 63 b/s
Count of elements : 1782
Stream size : 63.1 KiB (0%)
Title : full SDH
Language : English
Default : No
Forced : No
Menu
00:00:00.000 : en:Chapter 01
00:06:24.301 : en:Chapter 02
00:10:57.199 : en:Chapter 03
00:15:10.702 : en:Chapter 04
00:19:22.703 : en:Chapter 05
00:22:46.865 : en:Chapter 06
00:27:03.664 : en:Chapter 07
00:30:29.953 : en:Chapter 08
00:37:49.225 : en:Chapter 09
00:43:36.113 : en:Chapter 10
00:51:42.767 : en:Chapter 11
00:54:52.456 : en:Chapter 12
00:59:03.332 : en:Chapter 13
01:06:41.247 : en:Chapter 14
01:10:47.451 : en:Chapter 15
01:13:08.091 : en:Chapter 16
01:20:13.350 : en:Chapter 17
01:24:01.328 : en:Chapter 18
01:28:58.041 : en:Chapter 19
01:33:06.664 : en:Chapter 20
01:35:24.218 : en:Chapter 21
01:42:40.362 : en:Chapter 22
01:45:59.686 : en:Chapter 23
01:52:34.039 : en:Chapter 24
01:57:50.438 : en:Chapter 25
02:01:42.002 : en:Chapter 26
02:06:18.946 : en:Chapter 27
02:09:20.460 : en:Chapter 28

Скриншоты

[Профиль] [ЛС]
Показать сообщения:    
Ответить на тему

Текущее время: 21-Июл 12:46

Часовой пояс: UTC ± 0



Вы не можете начинать темы
Вы не можете отвечать на сообщения
Вы не можете редактировать свои сообщения
Вы не можете удалять свои сообщения
Вы не можете голосовать в опросах
Вы не можете прикреплять файлы к сообщениям
Вы не можете скачивать файлы

[  Время выполнения: 0.0722 сек  |  MySQL: 0.0468 сек (65%) · 6 запр.  |  сжатие Gzip: выкл  |  Память: 429.93 KB / 2.03 MB / 1.35 MB  ] |  |  |