Частное пионерское (Александр Карпиловский) [2013, Россия, детский, приключения, семейный, WEB-DL 1080p]

Ответить на тему
Статистика раздачи
Размер:  3.57 GB   |    Зарегистрирован:  4 года 2 месяца   |    Скачано:  14 раза
Список скачавших: Нет

Полного источника не было: Никогда

     
 
Автор Сообщение

MAGNAT ®

Пол: Мужской

Зарегистрированный: 5 года 2 месяца

Сообщений: 20033

Откуда: Москва

Создавать темы 02-Апр-2020 08:34 | #1 · Автор

[Цитировать]

Частное пионерское
Страна: Россия
Жанр: детский, приключения, семейный
Год выпуска: 2013
Продолжительность: 01:40:27-Перевод: Не требуется
Субтитры: нет
Оригинальная аудиодорожка: русский-Режиссер: Александр Карпиловский-В ролях: Семен Трескунов, Егор Клинаев, Анфиса Вистингаузен, Юлия Рутберг, Светлана Иванова, Владимир Зайцев, Ирина Линдт, Раиса Рязанова, Евгений Мундум, Валентин Садики-Описание: Мишка и его верный друг Димка — школьники. Они готовятся к празднованию дня рождения пионерской организации. На рыбалке Мишка падает в реку, но его спасает бездомная собака, с которой ребята очень подружились… Неожиданно собака попадает к скорняку, и только помощь друзей может избавить её от неминуемой гибели. Перед Мишкой и Димкой встает непростой выбор — участие в пионерском празднике или спасение собаки. .. Долг, дружба, любовь… Что важнее?- -Качество видео: WEB-DL 1080p
Формат видео: MKV
Видео: 1920x814 (2.35:1), 25.000 fps, AVC, ~4597 Kbps, 0.118 bits/pixel
Аудио: Russian, 48.0 KHz, AC3, 6 ch, 384 Kbps--

MediaInfo

Код:
Формат : Matroska
Версия формата : Version 2
Размер файла : 3,57 Гбайт
Продолжительность : 1 ч. 40 м.
Общий поток : 5082 Кбит/сек
Дата кодирования : UTC 2019-05-24 17:18:22
Программа кодирования : mkvmerge v7.8.0 ('River Man') 32bit built on Mar 27 2015 16:18:02
Библиотека кодирования : libebml v1.3.1 + libmatroska v1.4.2
Видео
Идентификатор : 1
Формат : AVC
Формат/Информация : Advanced Video Codec
Профиль формата : High@L4
Настройки формата : CABAC / 5 Ref Frames
Параметр CABAC формата : Да
Параметр RefFrames формата : 5 кадров
Идентификатор кодека : V_MPEG4/ISO/AVC
Продолжительность : 1 ч. 40 м.
Битрейт : 4597 Кбит/сек
Ширина : 1920 пикселей
Высота : 814 пикселей
Соотношение сторон : 2,35:1
Режим частоты кадров : Постоянный
Частота кадров : 25,000 кадров/сек
Цветовое пространство : YUV
Субдискретизация насыщенности : 4:2:0
Битовая глубина : 8 бит
Тип развёртки : Прогрессивная
Бит/(Пиксели*Кадры) : 0.118
Размер потока : 3,22 Гбайт (90%)
Язык : Russian
Default : Да
Forced : Нет
Цветовой диапазон : Limited
Основные цвета : BT.709
Характеристики трансфера : BT.709
Коэффициенты матрицы : BT.709
Аудио
Идентификатор : 2
Формат : AC-3
Формат/Информация : Audio Coding 3
Коммерческое название : Dolby Digital
Идентификатор кодека : A_AC3
Продолжительность : 1 ч. 40 м.
Вид битрейта : Постоянный
Битрейт : 384 Кбит/сек
Каналы : 6 каналов
ChannelLayout : L R C LFE Ls Rs
Частота : 48,0 КГц
Частота кадров : 31,250 кадров/сек (1536 SPF)
Битовая глубина : 16 бит
Метод сжатия : С потерями
Размер потока : 276 Мбайт (8%)
Язык : Russian
ServiceKind/String : Complete Main
Default : Да
Forced : Нет

Скриншоты


Частное пионерское (Александр Карпиловский) [2013, Россия, детский, приключения, семейный, WEB-DL 1080p] [powertracker.ru-14653].torrent 
Торрент: Зарегистрирован [ 2020-04-02 08:34 ]

info_hash: AA1EA9339DF21F0F6362C9DBFA99225BE5952F1E

Скачать .torrent

Скачать

18 KB

Статус: проверено · MAGNAT · 4 года 2 месяца назад
Скачано: 14 раза
Размер: 3.57 GB
[Профиль] [ЛС]
Показать сообщения:    
Ответить на тему

Текущее время: 19-Июн 23:33

Часовой пояс: UTC ± 0



Вы не можете начинать темы
Вы не можете отвечать на сообщения
Вы не можете редактировать свои сообщения
Вы не можете удалять свои сообщения
Вы не можете голосовать в опросах
Вы не можете прикреплять файлы к сообщениям
Вы можете скачивать файлы

[  Время выполнения: 0.0459 сек  |  MySQL: 0.0140 сек (30%) · 8 запр.  |  сжатие Gzip: выкл  |  Память: 429.93 KB / 2.36 MB / 1.46 MB  ] |  |  |